Skip to main content

Phil Lesh and Friends Live at Fillmore Auditorium on 2007-09-28




d1t01 intro
d1t02 Friend Of the Devil >
d1t03 Let It Ride
d1t04 This Wheel's On Fire >
d1t05 New Speedway Boogie >
d1t06 I'm So Gone >
d1t07 Mean Mr. Mustard >
d1t08 Cosmic Charlie
d2t01 intro
d2t02 Scarlet Begonias >
d2t03 Fire On the Mountain
d2t04 Bird Song >
d2t05 Spots Of Time >
d2t06 The Golden Road (To Unlimited Devotion)
d3t01 Viola Lee Blues >
d3t02 Loose Lucy >
d3t03 Viola Lee Blues >
d3t04 Alabama Getaway >
d3t05 Viola Lee Blues


Collection PhilLeshandFriends
Band/Artist Phil Lesh and Friends
Venue Fillmore Auditorium
Location Denver, CO

Source AKG C 480 B comb/ CK61-ULS (DIN a) > Lunatec V3 (optical out) > iRiver iHP-120
Lineage iRiver iHP-120 > USB > PC > Wavelab > CD Wave Editor 1.95.1 > FLAC Frontend 1.7.1/ FLAC 1.1.2
Taped by Chuck Miller
Transferred by Chuck Miller

Notes

Set One:

d1t01 intro
d1t02 Friend Of the Devil >
d1t03 Let It Ride
d1t04 This Wheel's On Fire >
d1t05 New Speedway Boogie >
d1t06 I'm So Gone >
d1t07 Mean Mr. Mustard >
d1t08 Cosmic Charlie

Set Two:

d2t01 intro
d2t02 Scarlet Begonias >
d2t03 Fire On the Mountain
d2t04 Bird Song >
d2t05 Spots Of Time >
d2t06 The Golden Road (To Unlimited Devotion)
d3t01 Viola Lee Blues >
d3t02 Loose Lucy >
d3t03 Viola Lee Blues >
d3t04 Alabama Getaway >
d3t05 Viola Lee Blues

Encore:

d3t06 donor rap
d3t07 Box Of Rain

Source: AKG C 480 B comb/ CK61-ULS (DIN a) > Lunatec V3 (optical out) > iRiver iHP-120
Location: OTS, center, 8' up
Master format: 44.1 kHz, 16 bit, stereo (.WAV)
Digital transfer: iRiver iHP-120 > USB > PC
Digital editing: Wavelab (pre and post set fades)
Tracking & processing for CD: CD Wave Editor 1.95.1 > FLAC Frontend 1.7.1/ FLAC 1.1.2
Distribution format: 44.1 kHz, 16 bit, stereo (.FLAC)

Recorded, processed and distributed by Chuck Miller (chuck@taperssection.com)

PAF Lineup: Phil Lesh, Jackie Greene, Larry Campbell, John Molo, Steve Molitz

Phil dedicated the show to Kathy

Omni mic version available here:
http://www.archive.org/details/PAF2007-09-28.omni

Disc 1 Total: 64:09.12
Disc 2 Total: 54:46.69
Disc 3 Total: 53:08.15


shntool results:
length expanded size cdr WAVE problems filename
4:58.18 52609580 --- -- ---xx paf2007-09-28d1t01.flac
11:37.54 123077852 --- -- ---xx paf2007-09-28d1t02.flac
6:59.39 74003372 --- -- ---xx paf2007-09-28d1t03.flac
7:35.35 80344364 --- -- ---xx paf2007-09-28d1t04.flac
9:21.37 99047468 --- -- ---xx paf2007-09-28d1t05.flac
10:34.10 111861164 --- -- ---xx paf2007-09-28d1t06.flac
5:30.02 58216748 --- -- ---xx paf2007-09-28d1t07.flac
7:32.42 79831628 --- -- ---xx paf2007-09-28d1t08.flac
3:40.43 38909180 --- -- ---xx paf2007-09-28d2t01.flac
12:23.19 131109932 --- -- ---xx paf2007-09-28d2t02.flac
12:35.35 133264364 --- -- ---xx paf2007-09-28d2t03.flac
13:17.68 140750780 --- -- ---xx paf2007-09-28d2t04.flac
5:48.72 61556588 --- -- ---xx paf2007-09-28d2t05.flac
7:00.57 74222108 --- -- ---xx paf2007-09-28d2t06.flac
11:37.45 123056684 --- -- ---xx paf2007-09-28d3t01.flac
10:51.24 114892892 --- -- ---xx paf2007-09-28d3t02.flac
6:14.38 66063020 --- -- ---xx paf2007-09-28d3t03.flac
8:32.16 90354476 --- -- ---xx paf2007-09-28d3t04.flac
7:01.25 74323244 --- -- ---xx paf2007-09-28d3t05.flac
2:37.10 27718364 --- -- ---xx paf2007-09-28d3t06.flac
6:14.07 65990108 --- -- ---xx paf2007-09-28d3t07.flac
172:04.21 1821203916 B (totals for 21 files, 0.5341 overall compression ratio)

PAF2007-09-28.txt
09-29-2007 cm

Reviews

Reviewer: Dylan M - - October 4, 2007
Subject: Great Energy for a new formation
Seemed to me like a China Cat Sunflower tease. Only confirming thoughts were that we got a China>Rider the next night. I feel like the fillmore show was a huge tease night.
Reviewer: brucifer - - October 4, 2007
Subject: Lovelight
Anyone else hear Phil teast Lovelight towards the end of the first Viola, I sure could of went for osme of that
Reviewer: sweetdubbbbidydoo - - October 2, 2007
Subject: Great Show
The first set was good could have had a few more dead hits in it but jackie green and larry campbell made up for it with their sweet guitar strokes...set break was real long due to technical difficulties with phil's mike but it all gave us time to refresh with a cold one and such and then they came out rockin with scarlet and fire on the mountain as well as bird song then the viola lee three times was sweet and an encore with box o' rain was a nice way to end a chill evening
Reviewer: Skippy61 - - October 1, 2007
Subject: what a great show
hi all

I am streaming and D/L this at the same time.What a great show and the Mean Mr.Mustard completely unexpected at least by me. Get this show its well worth your time. Thanks again to the taper and Phil for letting us all share in the music.

PEACE:Skippy
Reviewer: ratdog1 - - October 1, 2007
Subject: DOWNLOADING NOW
Thanks for the download. I taped the Santa Barbara and Greek shows so I am looking fwd to hearing this show and the one from Red Rocks. Keep on trucking Phil, and that Jackie Greene guy from Sacramento Ca. who I saw in a bar playing alone in Sac Ca 4-5 years ago and many times since you are the real deal.....News Years in San Fransisco this year I hope......Have a great tour.....I am having a great time with the music so keep on trucking on....ratdog1.....Lou
Reviewer: Alex Stone - - October 1, 2007
Subject: well done
Great show great recording nuff said
Reviewer: 1/2step - - September 30, 2007
Subject: 3 hour show
I hope Phil can keep this up by the time he gets to New York.The Band sounds tight,the sound quality is excellent.3 hour show to top it off.
DOWNLOAD OPTIONS
Uploaded by
morst
on 9/30/2007
Views
40,720
Favorites
17
Reviews
7
PEOPLE ALSO FOUND
Phil Lesh and Friends
by Phil Lesh and Friends
6,800
2
1
( 1 reviews )
Source: Neumann KM140's (FOB/ORTF)
Phil Lesh and Friends
by Phil Lesh and Friends
4,769
1
0
Source: B&K 4021 > SX-M2 > SBM-1 > D-8
Phil Lesh and Friends
by Phil Lesh and Friends
5,060
1
0
Source: AKG C522 > Lunatec V3 > Sony TCD-D8 DAT (FOB M/S Master)
Phil Lesh and Friends
by Phil Lesh and Friends
2,476
4
3
( 3 reviews )
Source: AKG C 460 B comb (70Hz highpass on)/ CK62-ULS (Split 13") > modified DMIC-20 (optical out) > iRiver iHP-140
Phil Lesh and Friends
by Phil Lesh and Friends
40,720
17
7
( 7 reviews )
Source: AKG C 480 B comb/ CK61-ULS (DIN a) > Lunatec V3 (optical out) > iRiver iHP-120
Dead Rock West
by Dead Rock West
166
1
0
Source: AT853 > AT8531 > Edirol R-09
Cracker
by Cracker
246
1
0
Source: DAUD @48kHz, 24 bit
The Kind
by The Kind
3,210
0
1
( 1 reviews )
Source: Sony ECM-909 > D6 > CAS
Mojo Radio
by Mojo Radio
178
1
0
Source: Zoom H2 handy recorder, Built-in mics @ 90degrees > WAV @24bit/48kHz
ted quinn
259
1
0
Source: DAUD